/Psychedelic/CekTaHT - M3HT@1 uH!B&pC3 [2007]/



       
View artist profile  
PERFORMER "CekTaHT"
TITLE "M3HT@1 uH!B&pC3"
FILE "01-CekTaHT_-_M3HT@1_uH!B&pC3.mp3" MP3
TRACK 01 AUDIO
TITLE "Intro"
PERFORMER "Raja Ram&Lucas"
INDEX 01 00:00:00
TRACK 02 AUDIO
TITLE "The Aquarium"
PERFORMER "Scorb"
INDEX 01 00:33:00
TRACK 03 AUDIO
TITLE "Oracle"
PERFORMER "Scorb"
INDEX 01 03:14:50
TRACK 04 AUDIO
TITLE "Primative Earthlings "
PERFORMER "Eat Static&Lucas"
INDEX 01 09:33:00
TRACK 05 AUDIO
TITLE "The Third Revelation"
PERFORMER "Alien Project"
INDEX 01 14:23:00
TRACK 06 AUDIO
TITLE "Porcupine"
PERFORMER "Tristan & Lucas"
INDEX 01 19:34:00
TRACK 07 AUDIO
TITLE "Acid Level 33"
PERFORMER "Wizzy Noise"
INDEX 01 25:25:00
TRACK 08 AUDIO
TITLE "Perpetual White Light Night Party"
PERFORMER "Dino Psaras"
INDEX 01 31:32:00
TRACK 09 AUDIO
TITLE "Albavoce"
PERFORMER "Nomad"
INDEX 01 40:17:00
TRACK 10 AUDIO
TITLE "Deuchland"
PERFORMER "Logic Bomb"
INDEX 01 46:30:02
TRACK 11 AUDIO
TITLE "Inside My Head"
PERFORMER "Silicon Issness"
INDEX 01 51:35:02
TRACK 12 AUDIO
TITLE "Liquid Troll (2004 Rmx)"
PERFORMER "Chakra"
INDEX 01 57:23:02
TRACK 13 AUDIO
TITLE "The Missing Sun"
PERFORMER "The Misted Muppet"
INDEX 01 62:50:02
TRACK 14 AUDIO
TITLE "Emotional"
PERFORMER "Projective Hands"
INDEX 01 66:00:02
TRACK 15 AUDIO
TITLE "Deep Reef"
PERFORMER "Tranan"
INDEX 01 71:49:02
Info
 rating: 4.3 

COMMENTS

Total comments: 3

maneff says: (08 Mar 09)

Става!
макърче.. траклиста нещо не ми допада

carnivora says: (03 Jun 08)

Syper istoria e toia set mnogo dobro

dereklangold says: (30 Dec 07)

brilliant stuff - excellent track selection - particularly like the intro - gets your attention straight away.

excellent work.

Happy New Year